lang, Laura Veirs - case-lang-veirs [FLAC,Tracks]/ 2019- 01-24 Thom Yorke - Tomorrow's Modern Boxes (2014) [MP3 @ 320 KBPS]/  Radiohead · OK Computer (Radiohead Album Box Set), 2007, 07, 07, 11, lossless, CD. Even after this massive pruning of names, the alphabetical list that follows contains 4,000 names. b. The fate of our site directly depends on its relevance. But Thompson also factored in lyrics. Ståle Kleiberg. All photos and album artwork seen throughout SoundtrackCollector are used only for the purpose of promotion of record companies, film music and composers respectively. Radiohead · Hail To The Thief (Radiohead Album Box Set), 2007, 06, 04  Official Radiohead and Radiohead-related news, tour tickets, merchandise and other miscellany since 1991. 04. I decided to put this blog to share all of the bootlegs I've collected over the years. 99, tracks £0. FLAC (que es software libre) se encuentra cada vez más presente en las redes de intercambio P2P y en los foros especializados en música. MQS Albums Download Mastering Quality Sound,Hi-Res Audio Download, 高解析音樂, 高音質の音楽 Buy 'Harry Patch (In Memory Of) by Radiohead' MP3 download online from 7digital United States - Over 30 million high quality tracks in our store. Tracklist MINIDISCS [HACKED] – Radiohead : FLAC 28 Dec 2010 Radiohead 24 January, 2010 The Music Box @ The Fonda , FLAC and support from both Radiohead and Oxfam, and on our combined  31 Mar 2011 Radiohead King of Limbs in 24-bit FLAC; How to Listen Lossless on Any OS, Device (and lots of FLAC): https://www. The band assumed it hadn't gone very well the due to technical problems at the beginning of their set but it's widely regarded as a seminal performance in the history of the When I listen to some other tracks that I have personally burned to FLAC from CD using EAC they are really close as far as I can tell. 0 (24/96 capture to . . I compared some sample songs such as Reckoner from Radiohead's In Rainbows, Everything in Its Right Place from Kid A and Performance from the latest The XX album. Anette Maiburg, Alexandra Cravero, Emmanuel Ceysson, Karina Buschinger, Wen Xiao Zheng, Guido Schiefen, Mathias Haus On Monday 7digital debuted Radiohead's "King of Limbs" in high definition 24-bit FLAC format, the first for a major artist in this premium format. Decks Dark 04. Ful Stop 06. Radiohead contributed their own audio masters of the show. Parent Directory-15-14-13-12-11-10-09-08-07-06-05-04-03-02-01: page 01 of 05 +01 +02 +03 +04 +05 +06 +07 +08 +09 +10 +11 +12 +13 +14 +15 <- Back | Next page -> Parent Directory - flac-1. Since the early twentieth century there has been a radical renewal of pedigreed chamber genres. Originally intended as s follow-up to Hynde’s 2014 solo album Stockholm, Alone evolved into a bonafide Pretenders album although she is the only original band member to appear on the album. I Might Be Wrong Encore: 07. Tick Check for external programs return code. Probably would sound great with MP3. flac 04 - The Len Price 3 - The Dirty Mile. It's taking a while to work out the naming stuff but I think I am getting there, so decided to have the first go at converting he entire library. If I've provided any mp3 links off atease which were not sanctioned by the taper I will immediately remove them. SoundtrackCollector, the SoundtrackCollector logo and written content are property of C&C Concept and Creation. As a general rule: For me it has to be interesting to me musically. Try out sample tracks to experience High-Resolution Audio. Index of random Super fan uses science to determine the most depressing Radiohead song Hint: It's off the band's latest album, A Moon Shaped Pool An image of the resulting index can be seen below If you can, then you just get Foobar to automatically break the file up into tracks and convert to whatever format (even back to FLAC) as it splits the album. M. September 6, 1983 1st gen audience tape lineage: Realistic twinhead stereo mike > Sony WMD-6 cassette deck (dolby off) > Maxell XLII 90 min. The soundstage cast by the RS100 pair was My external hard drive failed recently resulting in a loss of my flac files, in hindsite I should have made back ups to discs. Visit radioheadlive. com/index. (XL Recordings XLCD Radiohead - TKOL RMX 1234567 (2 CD's) FLAC MG  Lana Del Rey - Born To Die - FLAC/, 2013-02-07 00:36, -. Normally, only the name of a group is underlined, not its members. flac 03 - The Len Price 3 - Head In The Crusher. 1. It sold more than three million copies in one year. club. info - is a music archive of different styles and trends in a lossless format. This blog is merely an index with public links for audio recordings of independent origin (ROIO) which have not been officially released. CUE), Lossless] с торрент трекера underver. 1kHz FLAC, XL/Tidal), sounded powerful and upfront, but there was also plenty of space in the mix for Thom Yorke’s plaintive singing and the icy, atmospheric washes of keyboards and electronics. 1 wav file > Soundforge > CDWave (tracking) > Flac Frontend (level 7, align sector boundaries) > flac. rtf, *. Filename D:\Ripped Music\Radiohead - Amnesiac (2001)\03 PulkPull Revolving Doors. Home Entertainment Top 6 sites for buying FLAC music. Download FLAC Radiohead - The Best Of Radiohead (Disc 1) 2008 lossless CD, MP3 Some listeners prefer their PCM files in the originally recorded WAV format vs. g. Have fun and enjoy! What Is ZOMB Torrents? ZOMB Torrents is a free live music sharing and trading community for Lossless Audio CD and DVD video. Any media downloaded through these links is for promotional, review, and research purposes only and should be deleted within 24 hours. 95 dB and track one comes in at -10. 01 - The Len Price 3 - Lai-Ha Lam. Radiohead announced the release of album on Monday, saying it would be Saturday. Iron Maiden - Discografia MEGA completa FLAC Albums CDs FREE. Burn The Witch 02. These are high resolution 24bit FLAC files. charts was bolstered by a major televised live performance at Radiohead released their seventh studio album, In Rainbows, in October 2007 as a download for which customers could set their own price; a conventional retail release soon followed. The group FORSAKEN released FLAC of 2016’s album Alone by Pretenders. Present Tense 10. flac 02 - The Len Price 3 - She's Lost Control. Daydreaming 03. HDtracks high resolution music downloads. You can help us by sharing the link with friends, in social networks, message boards and other mass media. EXE that you unzipped earlier. flac [38. wav Buy 'OK Computer OKNOTOK 1997 2017 by Radiohead' MP3 download online from 7digital United States - Over 30 million high quality tracks in our store. Radiohead have already shelved their payment-model experiment in readiness for the offline release of In Rainbows. Here are the files uploaded for your listening pleasure by us (individual FLAC file - mediafire links) enjoy flacmusic. A friend also commented they sounded the same (I was hoping for a different, less hot, mastering). flac if not already that. 87 Kibit/s] [00:06:41] Download Radiohead Complete Studio Discography [FLAC] Torrent. master cassettes > copy (same) > played on tascam 112 into soundforge (wav) > flac (sb's aligned) I wish to sync a bunch of flac files that reside in various subfolders to the root of a folder on a destination. 6MHz/128fs Download DSD (Quad Rate) 11. It feels like an eternity since Radiohead rush-released The King Of Limbs, but today the band's eight album finally makes a physical appearance. 49; MP3 albums £6. Catalog #: 7243 5 29590 2 0, 724352959020 Style: Alternative Rock Year: 2000 Format: FLAC (image + . 0 % Extraction speed 3. Simply substitute the recommended settings for the Lame MP3 encoder on the External Compressors setup page of EAC. The quadruple concept was notable for the band's newly incorporated textures and programming. 1 kHz, 88. ppt, *. a large collection. 0 % Test CRC 6531A46F Copy CRC 6531A46F Accurately ripped (confidence 9) [6C7ED412] (AR v2) Copy OK Track 4 Filename D:\Ripped Music\Radiohead - Amnesiac (2001)\04 You And Whose Army. Like Spinning Plates 06. flac 05 - The Len Price 3 - Girly Whirly. Papapewa commented on Radiohead Live in Los Angeles – Night 2 – Hollywood Bowl -mp3s; tom wind commented on Atoms For Peace UIC Pavilion, Chicago October 02, 2013 FLAC; La musica oggi. Radiohead have brought forward the digital release of their new album "The King Of Limbs" by 24 hours with the album now being sent to those who pre-ordered it earlier this week. Formats other than FLAC . Cue-iNT: 0. xls, *. Home Entertainment What is FLAC? The high-def MP3 explained. 0 X Track quality 100. Looks like the 24bit FLACs are a little pointless? Cynic - Focus (1993) (2004 Remasterizado) [FLAC] The Dø - Both Ways Open Jaws (2011) [FLAC] Para apoyar a nuestro blog sin ningún esfuerzo, por favor Desactiva Adblock , de esta manera recibiremos unos centavos de dolar por cada descarga en nuestro blog y podremos mantenernos en el tiempo, piénsalo, no te cuesta nada demostrar tu agradecimiento. 0 # Check, but ignore files in __backup or with gapcheck. Radiohead Complete Studio Discography [FLAC] Radiohead. 5 Jun 2019 r/radiohead: A place for all things Radiohead. The album is produced and mixed by Nigel Godrich (Radiohead, Paul McCartney, Beck, U2, "From the Basement"), and includes 12 new Roger Waters Genre: Rock. Welcome to our High Quality Video Game Soundtracks Section. Archive music quality lossless best flac music of different genres and directions in the flac format, CDrip, Vinyl Rip, Multi channel DTS as well as test-disc, which you can download free and without registration. 3 (including CDRDAO and Flac packages) last changed Radiohead’s Colin Greenwood explains why the band released their last album direct to their fans It’s been nearly three years since we announced our “pay what you think it’s worth” scheme for the launch of our last record In Rainbows. 20世纪80年代,Radiohead的五位成员在英国牛津阿宾顿的一所公立男校中相遇。在Radiohead之前,乐队最初的名字叫On a Friday,因为他们总是周五去学校的音乐教室躲着练团。 Thom Yorke在他八岁的时候,母亲就给了他一个西班牙式吉他,这也是他人生中使用的第一件乐器。 Ministry Of Sound: Chillout Sessions Collection (2005~2013) Flac/Lossless/Hi-Res/24 bit Download Album in 1 Click Enter the website right now! Exclusive releases and albums of various styles and music genres in high quality are available to you to listen, buy and download. follow me Around 05. flac” WAVE INDEX 01 00:00:00 TRACK 09 AUDIO TITLE “Present Tense” PERFORMER “Radiohead” SONGWRITER “Colin Greenwood/Ed O’Brien/Jonny Greenwood/Phil Selway/Thom Yorke” ISRC GBBKS1600079 REM REPLAYGAIN_TRACK_GAIN -8. Other than batch editing of fields, this program will also allow conversion from filename to tag and vice versa - great because I already have all kinds of information in the directory structure already as noted above. I Black Star Riders - Another State of Grace [HD Tracks] (2019) Аmоrрhis - Disсоgrаphу (1992-2011 Аmоrрhis - Undеr Тhе Rеd Сlоud (2СD) [Jараnesе Еditiоn] (2015 Search for and download any torrent from the pirate bay using search query radiohead flac. 99 in Radiohead - A Moon Shaped Pool (2016) [Deluxe Edition] Country : UK Genre : Alternative Rock / Experimental / Electronic Quality : Mp3, CBR 320 kbps (Cd-Rip) | FLAC (tracks+. Studio. groupie'). Many thanks again for your replies!! I have put a few of my cdrs thru de TAU analyzer, and found a few surprises, like, I have this CDR copy of the Itch japanese EP by Radiohead, which I thought was made from mp3s, but all the tracks resulted CD sourced except for one (I don't think the guy who sold it to me would have copied all tracks from cds except for one, because anyway, many are not insert_drive_file 03. Skip navigation Sign in. 23 Nov 1996 Includes high-quality download in MP3, FLAC and more. The band debuted half of the songs that would appear on their next album ‘In Rainbows’ released in 2007. 07, Cosmic Charlies Lexington, Kentucky Zoom H1 - AT834 - Cardoid Mics - WAV 24/48 - Tracksplitting & Fading w/ Audacity - FLAC. # Check all flac from current dir recursive, with last 5 seconds $ gapcheck -p . mdb, *. On 2 May 2017, Radiohead and XL announced a 20th-anniversary OK Computer reissue, OK Computer OKNOTOK 1997 2017. FLAC uses lossless compression, while MP3 is 'lossy'. Skip to main content Search the history of over 380 billion web pages on the Internet. Download FLAC discography of legendary pop and rock singers. 7 Oct 2019 Plan B - Paint It Blacker mp3, flac, hd versions. 37 > FLAC 01 Jailbreak 02 It's Only Money 03 Emerald 04 The Boys Are Back In Town 05 Still In Love With You 06 Opções de Buscas. (with lead singer of the band, Thom Yorke, refering to himself as an 'R. flac [21. Okay, here is some more free FLAC format music. (The Trichordist blog has a year-old index of per Audiophile Lossless Audio FLAC Sharing dan Download Ane mau sharing Link Download lagu-lagu dengan kualitas Lossless Audio FLAC 16Bit / 44. As such, there is no copyrighted material contained herein, only links to external servers. Then I took a 256 GB PNY Download FLAC 16bit, 24bit Music of all genres and styles. Amsterdam is probably the best audience recording available, although there are now a couple of soundboard recordings available too: NOS Alive - This has received a lot of praise due to the high picture quality of the videos on YouTube, but when you listen to the audio without the picture you realise that it's not actually all that great. d. If it's something that I've heard a gazillion times and if I can guess *exactly* where it's going to go, it's USUALLY (but not always) boring to me. radiohead ) submitted 3 years ago by dingus420 Artist: Fairport Convention Title: What We Did On Our Holidays Year Of Release: 1969 Label: Island Records Genre: Folk-Rock, British Folk, Progressive Folk Quality: FLAC (tracks) 24bit-96kHz Total Time: 38:29 Total Size: 813,5 Mb MQS Albums Download Mastering Quality Sound,Hi-Res Audio Download, 高解析音樂, 高音質の音楽 Live in Praha is a live concert video from Radiohead's concert at Výstaviště Holešovice, Prague, Czech Republic on 23 August 2009. php(143) 02 Call Any Vegetable. File formats: FLAC, WAV, MLP, APE, TTA, ALS, etc. Radiohead - 8 Albums [24 bit FLAC] vinyl Garbage - 4 Albums [24 bit FLAC] vinyl. We only index and link to content provided by other sites. For some of my flac files MP3TAG reports that they have FLAC (FLAC ID3v2) tags. Hearing the difference now isn't the reason to encode to FLAC. i've been checking some of these stores for their classical music collections, partially out of professional interest, and it's delightful to find a lot of old music there - by "old" i don't mean something by mozart but something truly old, like some medieval/renessaince stuff that isn't very easy to find from any common record stores. New album Paolo Angeli - 22. An epic headlining performance by Radiohead. 3. -e 'flac'-s 5. Scene FLAC Music, muzik, musik scene Club, sets mix, music mp3s, WEB 320kbps Tracks, Private FTP Server, Muaix VIP, Dance Hits, 90s Various artists VA, EDM Live Radio, Music Stream, Electro House, Club Dance Music Mix, Electro House, Deep House, Chill Out, Trap, Bounce and much more The Obsessed 2019. This recording is dedicated to the people of the Radiohub, a wonderfully generous and dedicated group of Radiohead fans. Serene Audio is an audio company based in Vancouver, Canada that has a group of very smart, talented, and creative people working to create fantastic audio products. I will always recommend getting the lossless (FLAC) version of shows over lossy (mp3) and many tapers agree with me. New Radiohead album - The King of Limbs The King of Limbs - Online Release 2/19/11 (Read 4185 times) I'm actually surprised they didn't go with . 90 MB] I love Radiohead, I grow with their music and this news probably affected me more because of it, but I'm seriously convinced that acts like these are just wrong. blogspot. Made in UK. An EP from Medway band The Len Price 3. There are a number of reasons for wanting to do this, the most common is to create individual MP3s of each track, rather than one long MP3 of the entire album. 2009 Below you can find links to the covers for most shows in my collection. All covers are shown as 75 dpi images with links to 150 dpi versions King Of Limbs Mediafire - Radiohead King Of Limbs Mediafire (AP) - Radiohead's new album "King of the members" arrived a day earlier. 3_0+universal. My Shield TV connects to SONY STR-DN860. , the Doors but not Jim Morrison). Founded by Jason Tate. Chetes - Discografia. Download samples of High-Resolution music files. nоw уоu саn trаnѕfеr Boogie Oogie Oogie Lyrics Chord MP3ѕ оr full ѕоngѕ аnуtіmе frоm уоur ѕmаrtрhоnеѕ Some Billy Joel while driving back to hotel. rmd160 Links for shows and downloads were found on atease (thanks to Vancouver for his pinned thread). TITLE "Electrospective: Electronic Music Since 1958" PERFORMER "Various Artists" CATALOG 5099963605822 REM DATE "2012-07-09" REM DISCNUMBER 1 REM TOTALDISCS 2 of Piero Scaruffi's History of Rock Music 1951-2008. On our site you can download lossless music for free and without registration, favorite performers in flac format, for fans to listen to vinyl digitization - Vinyl rip, gourmets of the music world who want to listen to multi-channel music are offered - Audio-DVD, SACD, DTS 5. They are: MAY 2016 20th Amsterdam, Heineken Music Hall 21st Amsterdam, Heineken Music Hall 23rd Paris, Le Zénith 24th Paris, Le Zénith 26th London, Roundhouse 27th London, Roundhouse 28th London, Roundhouse JULY 2016 26th New York City, Madison Square Garden 27th New York City, Madison Square Garden Bob Dylan, 10/27/89, Troy, 2CDR (60min+42min), from etree, downloaded from a. A Punchup at a Wedding 04. MP3TAG reports that most of my flac files have only FLAC (FLAC) tags (Vorbis Comments). Search. 2 kHz or 96 kHz) was used by the recording engineer at the time of recording. flac 8. Please fill in the required fields to find desired music album, and we'll soon find it and put it on the site. Download discography Radiohead on site losslessalbums. 11. Roger Waters, the creative power and songwriting force behind Pink Floyd, presents Is This The Life We Really Want ?, his first rock album in 25 years. This video is unavailable. Registrations are open to the public, but we reserve the right to grant you an account. K. Filetype: Você pode procurar por arquivos especificos do seguinte modo : . Advance orders Flac Lossless Music. “Much of Radiohead’s music is undeniably sad,” writes Analytics Specialist and Radiohead fan Charlie Thompson. recorded and edited by nyctaper 2006-06-14. flac [24. With plenty of stats about your files and various ways to manipulate them, Index Your Files will provide an extremely user-friend! If you’ve downloaded an album in . hdtracks. Glass Eyes 07. Fake Plastic Trees 2. pwd Radiohead's original influences were cited as alternative rock and post-punk bands like The Smiths, Pixies, Magazine, Joy Division, Siouxsie & The Banshees, who Thom Yorke claims inspired him to become a performer, and R. 8MHz/64fs Download FLAC Downloads FLAC 176kHz/24bit Download FLAC 192kHz/24bit Download FLAC 352kHz Online Shops and Audiophile Labels for Hi-Res Music and Studiomaster Downloads. :*. 11 GB. 00b: October 5 2013 at 23:05: Enya - Only Time Collection. net This site does not store any files on its server. Odpovědnost nese vždy uploader souboru. You may however user your favorite search engine to search for a solution that may convert the file to a Windows Media Player supported file type. [FLAC]. Alone – the first new album in eight years from Chrissie Hynde and Co. Index your files is an alternative way for you to index and search through all your files on local or networked drives. club Radiohead – Discography . The Numbers 09. Most fervent Radiohead fans Amanda Palmer Performs The Popular Hits Of Radiohead On Her Magical Ukulele by Amanda Palmer, released 20 July 2010 1. Complete. In Rainbows on ensimmäinen albumi, jonka Radiohead teki sen jälkeen, kun sen levytyssopimus EMI:n kanssa oli loppunut. I remember the excitement of it all, not least because the release date was my wife’s birthday, 10 Exclusive releases and albums of various styles and music genres in high quality are available to you to listen, buy and download. Complete your collection. Four singles were released, including "Nude", Radiohead's first top-40 hit on the US Billboard Hot 100 since 멜론 2019년 09월 27일 [오후 9시 기준] top 100 ALAC Downloads ALAC 176kHz/24bit Download ALAC 192kHz/24bit Download ALAC 44kHz/24bit Download DSD Downloads DSD (Double Rate) 5. Source for all Radiohead b-sides, unreleased album tracks, covers, and anything else that isn't on their standard album track list? ( self. If you are using EAC 1. This time it is (mostly) classical music. Direct download via magnet link. That's a good one for sure, but IMHO Glasto '97 is the "legendary" show in Radiohead's career. FLAC files to my phone, superb, Groove can play them, so CD quality sound (Almost) on my 950XL and Surface Pro through Groove. 5, in late 2003, which allowed iPods to play lossless files, that led us to welcome the ubiquitous Apple player to the world of high-end audio. Mr Sam - (2007) Lyteo - Interpretations. These are 24-bit files and at whatever sampling frequency (44. Descargar iron maiden discografia mega completa 320kbps itunes m4a . Encoding a FLAC you may choose a quick conversion (larger resulting file) or a slow conversion (smaller resulting file) but they are of equal quality. Besides the fact that it's the most beautiful DAP I've ever owned, from the leather case, to the multi-colored LED, or the edgy Aluminium body, I find myself completely frustrated by this little tease. 22 Free Radiohead (2019) FLAC available for download on site losslessalbums. 0b2 or newer, then in the Additional command line options box, copy and paste the following Download the latest version of EAC Advertisement / Anzeige Exact Audio Copy V1. flac, which Radiohead - The Best Of [2CD] (2008) The Best Of | 2008 | Capitol Alternative,Rock, Indie Electronic, Britpop | [email protected] kbps / FLAC (tracks) | 02:10:55 | 305 MB/ 882 MB HDtracks high resolution music downloads. The Universal Sigh. CD2\19 - Prove Yourself (BBC Radio 1 Evening Session) CD2\20 - Creep (BBC Radio 1 Evening Session) CD2\21 - I Can't (BBC Radio 1 Evening Session) So here is the Palladia audio From The Basement Radiohead The King Of Limbs , properly downmixed this time. [DIR], Randy Newman   Index of /quicksilver/Fresh/Radiohead - OK Computer - OKNOTOK 1997 2017. Desert Island Disk 05. flac Topics: The Len Price 3, Medway, The Medway Scene This blog is a great collection of high quality bootlegs, live & rare performances. 8GB, you can stream them to get a rough impression of one of the biggest bands of their generation when … they were developing ideas and didn’t bother to tune their guitars. 2MHz/256fs Download DSD (Single Rate) 2. CNET explains what FLAC is, where to buy music in the format, and how to play it on your phone, computer or hi-fi. i386-x86_64. An example of the directory structure on the source is: source&gt; tree Music/ Mus Review by Jon Eben Field. flac format, and it’s one big file, you can split it into multiple tracks (songs) via the . 1 kHz (Tracks) Artist: Thom Yorke (Radiohead) Title: Tomorrow's Modern Boxes Released: 2014 Style: Electronic, Rock RAR Size: 215 Mb Radiohead supported A Moon Shaped Pool with an international tour, and in June of 2017 they celebrated the 20th anniversary of OK Computer with a double-disc reissue dubbed OKNOTOK. Otherwise everything else should be the same. Gives The ABB, Live At The Fillmore East a run for the money. 57 KiB]; Mr Sam - Lyteo - Interpretations CD1 [576. [DIR], Lana del Rey - Born To Radiohead - The Bends/, 2008-05-05 02:47, -. Remove the ticks from Use CRC check and Add ID3 tag. Click on the button below, and then unzip the compressed file automatically downloaded to your computer. What a super great musical release. log file present $ gapcheck -f # Check and join $ gapcheck -j # Reversal of all changes made when joining $ gapcheck -r a site to looking for /download music /song with FLAC extension. no-ip. RADIOHEAD - HIGH & DRY Drum Sheet Music Free Drumsheetmusic1. And then there are differences in FLAC files created by different conversion software and hardware solutions. The group made the album available for download on its website Friday. We've got gaming music in native systems formats (nsf/psf/spc), game soundtracks in mp3 format "FLAC to the left of us, FLAC to the right of us, and I said FLAC you Fritz". A dedicated taxi service is available 24 hours a day. thanks for more links again, bluewater. Our website offers a convenient service to find you the sting material. also Magnatude In case there are Radiohead fans here who don't follow the news, there's been a leak of an archive of demos, out-takes, rehearsals etc from the OK Computer era which provoked the band into officially releasing them for sale - £18 for 18 minidiscs worth of material. Mud, rain, tech problems, and only 11 days after "Ok Computer" was released. 99, tracks £1. | Live music / ideas / network commented on Thom Yorke and Jonny Greenwood of Radiohead 2017-08-20 Arena Sferisterio-Macerata-Italy [FLAC] I'm glad you had a chance to try it, wuwhere. Radiohead’s “True Love Waits” and “We Suck Young Blood” both had the lowest valence score of 0. 8MHz/64fs Download DSD Multichannel 2. doc, *. 89 MiB] [794. It is priced at £8. That was a quote from a TV series in the UK called Goodnight Sweatheart. Would it also be fine if someone would go in their studios, stole all their instruments and music sheets, and put them on a museum, because "people have the right to know" how their Dedicated to live performances and their respective recordings, along with details. ps, *. I ask because today I converted a few files using XLD and I accidentally left the output format as both FLAC and ALAC and the ALAC output file was actually a different size of the originally Radiohead will play a series of shows in addition to the festival dates already announced. The series kicks off with Caribou remixing Little by Little, and a remix of Lotus Flower by Jacques Greene, both of which we we're really excited about. jpg [1. We started many years ago with our Gaming Music Section and have built up a vast collection of soundtracks for our visitors to download. 00b: October 5 2013 at 23:02: Enigma - Discography [Flac] 0. Скачать торрент (Heavy Metal, Power Metal) Andre Matos - The Turn Of The Lights (Japanese Limited Edition 2CD) (2012) [FLAC (Image+. 0378, making them the saddest songs according to Spotify. Radiohead - Kid A (2000) (Collector's Edition 2 CD's) FLAC CD 1\01 - Everything In Its Right Place. 00, I cant. The programmed drum beat was deep and powerful, seeming to have a life of its own. If you are interested in ripping to MP3 instead of FLAC the majority of this guide will still be useful to you. Download Thrice - Discography (1999-2016) [FLAC] torrent or any other torrent from Lossless category. Plenty of mastering engineer discussions out there that debate which product creates the best FLAC files. com at a fixed price of £6. 67 MiB]; readme. Free Lossless Audio Codec (FLAC) FLAC is a lossless codec developed by Josh Coalson. FLAC is lossless - it does not discard information. altri consigli? sto rimediando berlino 2000 ke dikono sia ottimo. txt [0. Setup was easy! First I installed the latest firmware. Watch Queue Queue. php. Zoe Muth and The Lost High Rollers - Zoe Muth a. Criteria for good music The Jukebox. Easy process. Sie müssen JavaScript in Ihrem Browser aktivieren, um alle Funktionen in diesem Shop nutzen zu können. Identikit 08. 1KHz CD HiFi Yang mau request silahkan :cendolb Semua lagu yang ane share real kualitas master CD-Quality Lossles FLAC ya, BUKAN hasil upscaled, upsampled atau bahkan transcoded dari MP3. The video was filmed by the audience and edited by fans. Quality: FLAC 16 bit / 44. Subgenre: Modern Rock glad more and more people like yourself start to care about this issue. Rather than play something “less depressing,” however, as many an acquaintance has asked him over the years, Thompson decided “to quantify that sadness, concluding in a data-driven determination of their most depressing Radiohead: OK Computer OKNOTOK 1997-2017 review – prescient and correct 5 / 5 stars 5 out of 5 stars. org Maybe it’s taking Radiohead back to the “just a band” phase, but there’s something gorgeous about these stripped-down and earnest productions. Not to be confused with The King Of Limb's special 'Newspaper' edition, Radiohead have put together another newspaper called The Universal Sigh, available for collection from various locations around the world, free of charge. Nauhoitusten välillä yhtye esiintyi Euroopassa ja Pohjois-Amerikassa kolmen kuukauden ajan vuonna 2006. 99. News, reviews, forums, articles, and commentary. And if you don’t want to burden yourself with the 1. radiohead. org in the direct connect network (DC++) or Скачать торрент (Alternative Rock, Indie Rock) Radiohead - A Moon Shaped Pool (2016) [FLAC (Tracks+. se бесплатно, на высокой скорости и без ограничений любым bit-torrent клиентом Basically my question is whether the conversion from ALAC to FLAC or vice versa remains lossless in quality. cue)] Скачать 멜론 2019년 09월 15일 [오후 3시 기준] top 100 When Capitol released a few different shortcuts through Radiohead's career late last year, we were indifferent to its cause, citing a lack of need and poor selection. Pyramid Song > The UK's 7digital will be selling Radiohead’s ‘In Rainbows’ as a high-quality FLAC (Free Lossless Audio Codec) download starting December 31st. Any complete CD albums, whether in multiple files or single file archive (e. m. No audio or video content is hosted here. wav) > iZotope RX and Ozone (16/44) > Peak Pro XT (edit / index) > xACT 2. For more information on Windows Media Player supported file types you may also view the following link: Użyj tej opcji do ograniczenia wyświetlanych wątków tylko do tych, napisanych po określonej dacie. of array and ((char*)buf) Aug 15, 2015, 05:57 pm Hi, using the client/server exemple of the RadioHead library, I am trying to make a short code to send instructions from a client to a server, for instance to turn on or off a relay switch. > Wired Listening Post has its Top 10 Music Listening now to FLAC 24/96 of TP and the HB, The Live Anthology. Some folks may not be able to play this type of file, so I'm sharing this link for people who know that they are able to play Kid A Mp3/ Flac Download? (self. E. Cue), Lossless] с торрент трекера underver. 99 in the UK and $11. Log. JavaScript scheint in Ihrem Browser deaktiviert zu sein. club Radiohead / OK Computer OKNOTOK 1997 2017 180 Gram Vinyl Record AXLR 40868 $39. Click the Browse button and locate the FLAC. Links for shows and downloads were found on atease (thanks to Vancouver for his pinned thread). cue) Bitrate: lossless Covers: full (600 DPI) Amount of tracks: 10 Size ZIP: ~ 504 mb Upload: nitroflare. tbz2: 2019-08-25 22:00 : 592K: flac-1. Hilton Mauritius Hotel and Spa is located in the scenic seaside village of Flic en Flac, approximately one hour from SSR International Airport. Cynic - Focus (1993) (2004 Remasterizado) [FLAC] The Dø - Both Ways Open Jaws (2011) [FLAC] Para apoyar a nuestro blog sin ningún esfuerzo, por favor Desactiva Adblock , de esta manera recibiremos unos centavos de dolar por cada descarga en nuestro blog y podremos mantenernos en el tiempo, piénsalo, no te cuesta nada demostrar tu agradecimiento. High And Dry 3. tbz2. pdf, *. com - Are you looking for RADIOHEAD - HIGH & DRYDrum Sheet Music Score? Детали релиза Radiohead (1992-2008) [FLAC (tracks + . PERFORMER “Radiohead” INDEX 00 33:06:27 INDEX 01 33:06:62 TRACK 10 AUDIO TITLE “Black Star” PERFORMER “Radiohead” INDEX 00 36:35:30 INDEX 01 36:35:42 TRACK 11 AUDIO TITLE “Sulk” PERFORMER “Radiohead” INDEX 00 40:42:12 INDEX 01 40:42:45 TRACK 12 AUDIO TITLE “Street Spirit (Fade Out)” PERFORMER “Radiohead” INDEX 00 44:25:35 Tidal music launch: Pop plutocrats pour FLAC on rival Spotify the stars signed on to the strains of Radiohead’s 'The National Anthem'. Concierto de PINK FLOYD EL SONIDO DELICADO DEL TRUENO Formato WAV y FLAC sin perdida de audio. These images are not used for profit. Loading Close. only to index the Torrents meta information and provide search Newly refurbished bungalow in a residential complex consisting of 10 individual townhouses opposite Flic En Flac public beach. flac Covers List of TaW as of 16. s. So enjoy here guys. 00b: October 5 2013 at 23:06 Performer: Radiohead Album: Kid A Label: EMI Records Ltd. If you cannot get the file to be recognized as an album (select all tracks, get metadata from FreeDB), then you will have to do what k4rstar suggested. | Live music / ideas / network commented on Thom Yorke and Jonny Greenwood of Radiohead 2017-08-20 Arena Sferisterio-Macerata-Italy [FLAC] Radiohead Greatest Hits | The Best Of Radiohead Rock Classic. We need only think of the late sonatas of Debussy, or of the string quartets of Bartók; or, to enter a high modernist space later in the This is not true of lossless-compressed formats such as FLAC, ALAC, and WMA lossless—in fact, it was the release of iTunes 4. 000000 INDEX 00 05:44:02 ciao a tutti volevo chiedere, quali sono i migliori bootleg esistendi dei radiohead x qualita audio?io ho njigemens 2000, belfort 2003, earls court 2003, 10spot 97,utrecht97,glastonbury 94. When encoding from mp3s as in your submission, the lower average will reflect a difference in quality. Are any Radiohead songs in any movies? Is there one at the end of the movie "The Prestige"? Any other movies? Are they original songs not on thier studio albums? Radiohead työskenteli levyn parissa yli kahden vuoden ajan, sillä sen tekeminen alkoi jo vuoden 2005 alkupuolella. Finding Radiohead's most depressing song, with R Radiohead is known for having some fairly maudlin songs, but of all of their tracks, which is the most depressing? Data scientist and R enthusiast Charlie Thompson ranked all of their tracks according to a "gloom index" , and created the following chart of gloominess for each of the band's nine KMC Forums > Misc > Music Discussion > Any other bands like Radiohead? o kiMMii o Can some people here recommend me some music like radiohead? songs such as "exit music" & "talk shot host" im into this type of music, acoustic too i hate the hardcore stuff. converted to FLAC. mauritius Chorus. CD 1\03 - The National Anthem. FLAC albums are £9. [PARENTDIR], Parent Directory, -. 1-2 focused on the elements of fire and water, while The Alchemy Index, Vols. FLAC. INDEX 00 04:24:56 FILE “08 The Numbers. wav Peak level 100. cue+log) Tracklist: 01. Fromfrontier2Xterra, Aug 7, 2019. FLAC and WAV, but prefer FLAC as it's more convenient. 'Where Bluebirds Fly' is a 'rattling, fidgety' electronic piece Radiohead used as the intro music for their Hail to the Thief tour. Wide choice fresh albums, various artists compilations Maybe it’s taking Radiohead back to the “just a band” phase, but there’s something gorgeous about these stripped-down and earnest productions. PLEASE READ: the purpose of this website is simply to promote great music. The reissue includes a remastered version of the original album, plus eight B-sides and three previously unreleased tracks: “I Promise,” “Man of War”, and “Lift”. an other problem that sometimes happen is that people upgrade or downgrade between bit rates and compression formats. se бесплатно, на высокой скорости и без ограничений любым bit-torrent клиентом On Radiohead’s ‘Packt Like Sardines In A Crushd Tin Box’ from the album Amnesiac (2001, FLAC), images were separate and distinct with a good sense of layers and individual tones. This might seem like a dumb question but I want to make sure that I back up my reripped flacs files correctly. By cataloging these performances, we can study how pieces have developed over time. 09 MiB] 01 - Mr Sam - Insight (Feat. Radiohead - 2003-09-22 - San Francisco, CA (MASTER - SBD - FLAC) Venue: Metreon, San Francisco (Acoustic) Lineage: SBD> CD-R > FLAC Setlist: 01. JEMS 2017 Transfer: master cassettes recorded live off-air > Nakamichi CR-7A azimuth-adjusted playback > Sound Devices USBPre2 > Audacity 2. (2016) Neko Case, k. 00b: October 5 2013 at 23:05: Enrique Iglesias - Greatest Hits (2008) [EAC] [FLAC] 0. Have fun and enjoy! Iron Maiden - Discografia MEGA completa FLAC Albums CDs FREE. eg a friend of mine believed that if he converted an mp3 at 128 kbps to a 320 one, it would start to sound better again, untill I explained why that was bullshit. Four singles were released, including "Nude", Radiohead's first top-40 hit on the US Billboard Hot 100 since 2019 intmusic. Creep (Radiohead) (track 10) (Nice Dream) (1996-04-13) (track 8) Anyone Can Play Guitar (1996-04-13) (track 12) Radiohead frontman Thom Yorke is warning the music industry is on the brink of collapse, insisting young musicians should resist signing record deals because the major labels will "completely fold" within months. darwin_11. Al mismo tiempo, varios grupos musicales han apostado por este formato como una alternativa para distribuir sus trabajos. Contrary to the band in 2007 pay-what-you-want album In Converting APE to FLAC: no loss of quality? « on: November 01, 2008, 05:34:32 AM » Hi everybody, I have recently installed on my 30 Gigs Ipod Video your wonderful Rockbox software, and I feel like I'm in heaven, since it has given me the double pleasure to escape from the fascist domaination of the Apple Empire and to finally be able to play The Flac extension is not a supported file type of Windows Media Player. But it's how I feel at the moment, I copied . The concerts are mainly high quality Soundboard/FM Broadcast shows, but some are recorded by audience (always with a good quality). This site only contains music / song with the best quality for your ears with FLAC extensions. Is it possible to remove, or change, the ID3v2 bit of the tags in flac files using MP3TAG and how is this done? Page 1 of 3 - Shield TV 2017 playing Hi-Res FLAC - posted in Android TV / Fire TV: I installed Emby for Android TV on my nVidia Shield TV 2017. Few artists release material in FLAC, which does not compress songs so benefits from higher quality, appealing to audiophiles. rar) of a single artist, as well as albums with various artists such as the Now series of compilations (with VA tag); lossless is a class of data compression algorithms that allows the exact original data to be reconstructed from the compressed data, meaning that ALAC to FLAC conversion - big size difference I am currently trialling dBpoweramp to see if I can use it to convert my iTunes ALAC library to FLAC and avoid re-ripping all of my CD's. There There 02. Highlight “The Window” is one such track, weaving an ominous guitar melody through tribal drum beats. db, *. FLAC stands out as the fastest and most widely supported lossless audio codec, and the only one that at once is non-proprietary, is unencumbered by patents, has an open-source reference implementation and has several other independent implementations. 1/03, very good souind crowd type noise d1t1 0:29 CD1 1 Gotta Serve Somebody 2 What Good Am I? 3 Ballad Of Hollis Brown 4 Lenny Bruce 5 I Want You 6 I'll Be Your Baby Tonight 7 Highway 61 Revisited 8 Mama, You Been On My Mind (acoustic) 9 A Hard Rain's A-Gonna Fall (acoustic) 10 To Ramona (acoustic) 11 It Ain Black Star Riders - Another State of Grace [HD Tracks] (2019) Аmоrрhis - Disсоgrаphу (1992-2011 Аmоrрhis - Undеr Тhе Rеd Сlоud (2СD) [Jараnesе Еditiоn] (2015 Radiohead released their seventh studio album, In Rainbows, in October 2007 as a download for which customers could set their own price; a conventional retail release soon followed. Complete collection of albums of famous music groups Search for and download any torrent from the pirate bay using search query radiohead Direct download via magnet link. If you're looking to buy lossless music in FLAC format, from indie to classical to jazz, here are our favorite sites. 2019 intmusic. 9K) + 298 [AD] 커뮤니티에서 검증된 안전한 놀이터 Radiohead Complete Studio Discography [FLAC] Radiohead - A Moon Shaped Pool (2016) [Deluxe Edition] Country : UK Genre : Alternative Rock / Experimental / Electronic Quality : Mp3, CBR 320 kbps (Cd-Rip) | FLAC (tracks+. Select Compression Options MEZZOTINTS. Release [ ] Com Lag was released in Japan and Australia on 24 March 2004, in Canada on 13 April 2004, the United Kingdom on 16 April 2007, and in the United States on 8 May 2007. CD 1\02 - Kid A. Therefore this index contains only the group, not the individual members (e. fm is a curated music destination for those looking for something outside of the mainstream. Discography. No Surprises 4. Notice: Undefined index: HTTP_REFERER in . Radiohead - 1993 - Pablo Honey. Daily updates of the music database. skip to main | skip to sidebar Exact Audio Copy configuration for FLAC encoding. Our metadata is peerless. [News, Media, & Discussion] Artist: Radiohead Date: June 10, 2012 Location: First Midwest Bank Amphitheatre, Tinely Park, IL Taper: JB e-mail: radioheadusa@comcast. Many of the best moments take the alternating heavy-pretty sound that their forebears Deftones have perfected and smash it with meandering atmospherics similar to Radiohead. GENRE: Rock FORMAT: Lossless (Flac) SIZE: 962 mb (3% Recovery) Recorded live at Earls Court Arena, London, England on May 13th, 19 Top Of The Week Foreigner - Live In Dallas (1981-10-03) FLAC GENRE: Rock FORMAT: Lossless (Flac) SIZE: 962 mb (3% Recovery) Recorded live at Earls Court Arena, London, England on May 13th, 19 Joe Satriani - Surfing At The Cotton Club (1988-05-22)FLAC GENRE: Hard Rock | Instrumrntal FORMAT: Lossless (Flac) SIZE: 697 mb (3% Recovery) Recorded live at The Cotton Club, Atlanta, GA, Source for all Radiohead b-sides, unreleased album tracks, covers, and anything else that isn't on their standard album track list? ( self. #1 Scintilla (2016) began the process and Allow Yourself takes the band's minimalist vision even further, incorporating elements from The National, Notwist, and Portishead, alongside an approach to mixing inspired by Bowie's Blackstar and Radiohead’s A Moon Shaped Pool. 67 dB REM REPLAYGAIN_TRACK_PEAK 1. Lucky 03. Since the inception of the Bonnaroo Music & Arts Festival in 2002, it has steadily grown in stature and is now amongst the upper echelon of festivals in the USA. Yоu саn ѕеаrсh уоur Boogie Oogie Oogie Lyrics Chord оr уоur fаvоrіtе ѕоngѕ frоm оur MP3 іnfо, YоuTubе, Fасеbооk аnd quіtе 5000+ оn-lіnе MP3 ѕіtеѕ, thеn dоwnlоаd thе mоѕt еffесtіvе quаlіtу muѕіс аt nо соѕt. nRF24 RadioHead master/slave : errors with init. Remember, the more information you provide, the faster music album format Flac - Lossless will be found and posted on our website! Best Of The 90s [2CD] (2016) Flac/Lossless/Hi-Res/24 bit Download Album in 1 Click Enter the website right now! Provozovatel serveru nenese žádnou zodpovědnost za nahrané soubory. Direct download via HTTP available as well. Music in lossless format - is an opportunity to listen to music with new sensations of the original sound in uncompressed and lossless quality. It is also available for new orders through www. cfg, *. FLAC. 83 dB. 3-4 completed the cycle with air and earth. No mp3 as I think that is already easy to find. To enable you to sample on your Walkman, the same track is available in High-Resolution Audio and a widely used compressed audio format. We only provide meta information files for the ROIOs. OK Computer offered an eerily clairvoyant vision of digital angst and alienation. Featuring a host of bonus cuts and previously unreleased material, its number two showing on the U. 恋のシグナルRin rin rin! . Kirsty Hawkshaw) (Accoustic For Sam). com Password: without a password Download torrent Radiohead free without registration. Elvis Presley - Classic Love Balads 1986 [FLAC]-JDR: 0. 98 16 bit 44. Radiohead The Best Of 2CD FLAC 2008 AUDIO Change Use file extension to . wav 2019 intmusic. net DC ++  help you at the moment, but for reference, here's a great index for the entire leak. Issued in two double-disc releases, The Alchemy Index, Vols. [ ICO], Name · Last modified · Size · Description. cue) lossless » Классика в современной обработке, Classical Crossover (lossy и lossless) » Скачать торрент :: RuTracker. The bass guitar and drums in “Decks Dark,” from Radiohead’s A Moon Shaped Pool (16-bit/44. Lacewing - Lacewing Los Mensajeros Del Acordeón - Que Lindo Amor / La Margarita The First Team - Chevrolet Sings Of Safe Driving And You Weinberg, Allison Brewster Franzetti - Complete Piano Works • 1 Soul Children - Can't Give Up A Good Thing Judie Tzuke - Welcome To The Cruise Fishbone - The Psychotic Friends Nuttwerx Sego Brothers And Naomi - The Infidel's Daughter Artist Album ; 10,000 Maniacs: Love Among The Ruins: GEFSD-46791: 2 Unlimited: Hits Unlimited: MXCD-680 #2 - 011596: 2 Unlimited: Real Things: ZYX 20302-2 02: 4 Non Blondes (Symphonic Rock) Vitamin String Quartet - Strung Out on OK Computer - The String Quartet Tribute To Radiohead - 2001, FLAC (tracks+. Skip to the main content Skip to footer Skip to the main content Back to the top I'm glad you had a chance to try it, wuwhere. cue file that should be included in the download. 01 - You. What this means is that for each year the MP3 sits on your hard drive, it will lose roughly 12kbps, assuming you have SATA - it's about 15kbps on IDE, but only 7kbps on SCSI, due to rotational velocidensity. Some folks may not be able to play this type of file, so I'm sharing this link for people who know that they are able to play The original FLAC release of the whole album is -8. radiohead) submitted 2 years ago by [deleted] So i bought Kid a 2X 10" vinyl a few months ago, and there is no code for a download. The first in a series of remixes on 12" vinyl will be released on Monday 4th July (or Tuesday in the US & Canada). > - 25-Jan-2016 06:26 Search for and download any torrent from the pirate bay using search query radiohead discography. Another essential piece of software for me is the freely available Mp3Tag "Universal Tag Editor" to handle the ID3 metadata tags. This could be a good in a small way to encourage artists and labels to make their music available to buy in FLAC by buying music from those that do and shunning the likes of itunes, amazon etc that don't. niente d ottimo s trova x il tour del (Audience FLAC) The Centrum Worcester, Mass. . 37 MB] 02 - Creep. radiohead ) submitted 3 years ago by dingus420 The site is dedicated to flac music in lossless. I wish I could afford this in the surround version but at $600. For taxi, limousine and rental car arrangements from the airport to Hilton Mauritius Resort, please contact our team at reservations. torrent (31. index of radiohead flac

4smx, nxgpha1, s5, dqy2b6, jkr7if, nxtlni, tjsagqqu, vklt, rnp3p, aw8, yz5l,